#TITLE:Banana Slumber Party;
#SUBTITLE:(OCReMix);
#ARTIST:ypoi;
#TITLETRANSLIT:;
#SUBTITLETRANSLIT:;
#ARTISTTRANSLIT:;
#CREDIT:;
#BANNER:bananaslumberparty(ocremix)-bn.png;
#BACKGROUND:bananaslumberparty(ocremix)-bg.png;
#LYRICSPATH:;
#CDTITLE:;
#MUSIC:Banana Slumber Party - OC Remix.mp3;
#OFFSET:0.000;
#SAMPLESTART:52.219;
#SAMPLELENGTH:12.000;
#SELECTABLE:YES;
#BPMS:0.000=114.900;
#STOPS:;
#BGCHANGES:;
// cache tags:
#FIRSTBEAT:0.000;
#LASTBEAT:200.000;
#SONGFILENAME:Songs/nhac/Banana Slumber Party (OCReMix)/bananaslumberparty.sm;
#HASMUSIC:1;
#HASBANNER:1;
#MUSICLENGTH:105.848;
// end cache tags

//---------------dance-single - ----------------
#NOTES:
     dance-single:
     :
     Hard:
     9:
     0.872,0.779,0.227,0.000,1.000,622.000,24.000,0.000,0.000,0.000:
1001
0000
0000
0010
0000
0000
0100
0000
0000
0000
0001
1000
0001
0000
0010
0000
,
0000
0001
1000
0001
0010
0100
0010
0100
,
1000
0000
0000
0001
0000
0000
1000
0000
0000
0000
0010
0100
0000
0001
1000
0000
,
0010
0100
0000
0100
0100
0100
0000
0010
,
0001
0000
0000
1000
0000
0000
0010
0000
0000
0000
0001
1000
0001
0000
0010
0000
,
0000
0010
1000
0001
0010
0100
0010
1000
,
0010
0000
0000
0001
0000
0000
1000
0000
0000
0000
0010
0100
0000
0001
0100
0000
,
0010
0001
0000
0001
0001
0001
0000
0001
,
1001
1000
0010
0100
0011
1000
0010
1000
,
0011
0100
0010
1000
0011
0100
0010
1000
,
1001
0010
0100
0001
1100
0010
0100
0001
,
1001
0000
0010
0000
0100
0000
0001
0000
1000
0001
0010
0000
0100
0000
0001
0010
,
1000
0100
0001
1000
0011
0100
0010
1000
,
1001
0100
0010
0100
1001
0100
0010
1000
,
0011
0100
0001
0010
1100
0010
0100
1000
,
0011
0100
0010
1000
0101
0100
0010
1000
,
1001
0010
0100
0010
1001
0100
0001
0100
,
0011
0100
0010
1000
1001
0100
0010
0100
,
0011
0100
0010
1000
1001
0010
0100
0001
,
1100
0000
0010
0000
0100
0000
0001
0000
1000
0001
0010
0000
0100
0000
0001
0000
,
1000
1001
0010
1001
,
1000
0100
0001
1000
0010
0100
0001
1000
0100
0001
0010
0100
0010
0001
1000
0100
,
0010
0100
0001
1000
0100
0010
0001
0100
0010
0001
1000
0100
0010
0001
0100
0010
,
0100
0001
1000
0100
0010
0001
0100
0010
0100
0001
1000
0100
0010
0001
0010
0100
,
0001
0010
0100
0001
1000
0100
0010
0100
0001
1000
0010
0100
0001
1000
0100
0010
,
0001
0100
0010
0100
0001
0100
0010
0100
0001
1000
0100
0010
0001
0100
0010
0100
,
0001
1000
0100
0010
0100
0001
0100
0010
1000
0001
1000
0001
0100
0010
0100
0010
,
1000
0001
0010
0100
0010
0001
0100
0010
0001
1000
0100
0010
0100
0001
1000
0100
,
0010
0001
1000
0010
0100
0001
1000
0100
0010
0001
0010
0100
0010
0001
0100
0001
,
1000
0001
1000
0001
0100
0010
0100
0010
1000
0010
1000
0010
0001
0100
0001
0100
,
0001
0010
0100
1000
0001
0010
0100
1000
0010
1000
0100
0010
0001
1000
0100
0010
,
0001
0010
0001
0010
1000
0100
1000
0100
0010
0100
0010
0100
0001
1000
0001
1000
,
0010
0100
0001
0100
0010
1000
0010
0100
1000
0001
0010
0100
0010
1000
0001
1000
,
0001
0100
0010
1000
0100
0010
0001
0100
0010
1000
0001
0100
0010
1000
0001
0010
,
0100
1000
0010
0001
0100
0010
0100
0001
0010
0100
1000
0001
0100
0010
0100
0010
,
0001
0010
0100
0010
0100
0010
0001
1000
0100
0010
0001
0100
0010
0100
0001
1000
,
0100
0010
0100
0001
1000
0100
0010
0001
0100
0010
0100
0001
1000
0100
0010
0001
,
0010
1000
0001
0010
0100
0010
0001
1000
0100
0010
0001
0100
0010
0100
0001
1000
,
0100
0010
0001
0010
0100
0010
0001
0100
0010
0100
0001
1000
0100
0010
0100
0001
,
1000
0100
0010
0001
0100
0010
0100
0001
1000
0100
0010
0001
0010
0100
0010
0001
,
0100
0010
1000
0100
0010
0001
0010
0100
0010
0100
0001
1000
0010
0100
0010
0100
,
0010
1000
0001
0100
0010
0100
0001
1000
0100
0010
0001
0010
0100
0001
1000
0100
,
0010
0001
0100
0010
0100
0001
1000
0100
0010
0001
0100
0010
0100
0001
1000
0100
,
0010
0001
0100
0010
0100
0001
1000
0100
0010
0001
0100
0010
0100
0001
1000
0100
,
0010
0001
0100
0010
0100
0001
1000
0100
0010
0001
0100
0010
0100
0001
1000
0100
,
0010
0001
0100
0010
0100
1000
0001
0010
0100
0010
0001
1000
0100
0010
0001
0100
,
0010
0100
0001
1000
0001
0100
1000
0010
0100
0010
0001
0010
0100
0001
1000
0100
,
0010
0100
0010
0001
0100
0010
0100
0001
1000
0100
0010
0100
0010
0100
0001
1000
,
0100
0010
0001
0100
0010
0100
0001
1000
0100
0010
0001
0100
0010
0100
0001
1000
,
0100
0010
0001
0100
0010
0100
0001
1000
0100
0010
0001
0100
0010
0100
0010
1000
,
0001
0000
0000
0000
;

//---------------dance-single - ----------------
#NOTES:
     dance-single:
     :
     Medium:
     5:
     0.418,0.590,0.416,0.227,0.071,242.000,44.000,24.000,0.000,0.000:
0001
0000
0000
0100
0000
0000
0010
0000
0000
0000
0001
1000
0001
0000
0010
0000
,
0000
0001
1000
0001
1000
0001
1000
0001
,
0010
0000
0000
0100
0000
0000
0010
0000
0000
0000
0001
1000
0000
0001
1000
0000
,
0010
0100
0000
0100
0100
0100
0000
0100
,
0200
0320
0000
0032
2003
3200
0000
0320
,
2030
3002
0000
0203
0320
2030
0000
3002
,
0203
0320
0000
0032
2003
3200
0000
0320
,
0230
0302
0000
2003
3200
0302
0000
0023
,
1030
0010
0100
0001
,
1000
0100
0010
0001
,
0100
0010
0100
0001
,
1000
0100
0010
0001
,
0100
0010
1000
0001
,
0100
0010
0001
0100
,
0010
1000
0010
0100
,
0001
0100
0010
0100
,
0001
1000
0100
0010
,
0001
0010
0100
0001
,
1000
0100
0010
0001
,
0100
0010
0100
0001
,
1000
1001
1000
1001
,
1000
0000
0000
0010
0000
0000
0100
0000
0000
0000
0001
1000
0001
0000
0010
0000
,
0000
0100
0010
0100
0001
1000
0100
0010
,
0100
0000
0000
0010
0000
0000
0100
0000
0000
0000
0001
1000
0000
0100
0010
0000
,
0100
0100
0000
0100
0100
0100
0000
0100
,
0001
0000
0000
0010
0000
0000
0100
0000
0000
0000
0001
1000
0001
0000
0010
0000
,
0000
0100
0010
0100
0001
1000
0100
0010
,
0100
0000
0000
0010
0000
0000
0100
0000
0000
0000
0001
1000
0000
1000
0010
0000
,
0010
0010
0000
0010
0010
0010
0000
0010
,
0010
1001
0100
0011
,
0100
1001
1000
1100
,
0100
1010
0001
0101
,
0010
0101
0010
0011
,
0010
0101
0100
1010
,
0100
0110
0001
0110
,
0001
1010
0100
0011
,
0100
0101
1000
1010
,
0100
0011
0100
1001
,
0100
1100
0100
0110
,
0001
1100
0010
1001
,
0010
0011
0010
1001
,
0100
1100
0010
0101
,
0010
0011
0100
0110
,
1000
0110
1000
0011
,
0100
1001
0100
1010
,
0100
0011
0100
1001
,
0010
0101
1000
0011
,
0100
1001
1000
1100
,
0100
1001
0001
0101
,
1000
0101
1000
0110
,
0001
0000
0000
0000
;

//---------------dance-single - ----------------
#NOTES:
     dance-single:
     :
     Easy:
     2:
     0.252,0.260,0.000,0.000,0.000,187.000,0.000,0.000,0.000,0.000:
0000
0000
0000
0000
,
0000
0000
0000
0000
,
0000
0000
0000
0000
,
0000
0000
0000
0000
,
0001
0100
0010
0100
,
0001
1000
0100
0010
,
0001
1000
0100
0010
,
0100
0000
0001
0000
1000
0010
0100
0001
,
1000
0100
0010
0100
,
0001
1000
0100
0010
,
0100
0001
1000
0001
,
0010
0100
0010
0100
,
0001
1000
0100
0010
,
0100
0010
0001
1000
,
0100
0010
0001
0100
,
0010
0100
0001
1000
,
0100
0010
0100
0010
,
0001
0100
0010
1000
,
0100
0010
0001
0100
,
0010
0100
0001
1000
,
0100
0010
0001
0100
,
0010
0100
0001
1000
,
0100
0010
0001
0100
,
0010
0100
0010
0001
,
0100
0010
0100
1000
,
0100
0010
0001
0100
,
0010
0100
0010
0001
,
0100
0010
0100
0001
,
1000
0100
0010
0001
,
0100
0010
0100
0010
,
0001
0100
0010
0100
,
0001
1000
0100
0010
,
0001
0100
0010
0100
,
0001
1000
0100
0010
,
0001
0100
0010
0100
,
0001
0100
0010
0100
,
0001
1000
0100
0010
,
0001
0100
0010
0100
,
0001
0100
0001
0010
,
0100
0001
1000
0100
,
0010
0001
0100
0010
,
0001
0100
0010
0100
,
0001
1000
0100
0010
,
0001
0100
0010
0001
,
0100
0010
0001
0100
,
0010
1000
0100
0010
,
0001
0100
0010
0100
,
0001
1000
0100
0010
,
0100
0001
0010
0100
,
0010
0001
1000
0100
,
0100
0000
0000
0000
;

//---------------dance-single - ----------------
#NOTES:
     dance-single:
     :
     Challenge:
     11:
     1.000,0.972,1.000,0.255,1.000,622.000,226.000,27.000,0.000,15.000:
1001
0000
0000
1100
0000
0000
0110
0000
0000
0000
0001
0010
0100
0000
0110
0000
,
0000
1001
1100
0110
1001
0011
0101
0110
,
1001
0000
0000
1010
0000
0000
0110
0000
0000
0000
0001
1000
0000
0010
0100
0000
,
1001
1100
0000
1100
1100
1100
0000
1100
,
1002
0000
0203
0010
0000
0000
1320
0000
2030
0000
3002
0010
0100
0000
1203
0000
,
0320
2030
0100
3012
1203
0321
0100
2130
,
3002
0000
0203
0010
0000
0000
0320
0000
2030
0000
3002
0010
0000
0010
0203
0000
,
1321
1231
0000
1321
1231
1321
0000
1031
,
1001
1100
0110
1001
0011
0110
0101
1100
,
1010
0110
1001
0011
0110
1001
1100
0110
,
1100
1010
0011
0110
1001
1100
0110
1001
,
0011
0000
0110
0000
1001
0000
1100
0000
0110
0001
1100
0000
0011
1000
0110
0001
,
2010
0100
0001
0010
0100
0001
0100
0010
,
0001
0010
0100
0001
3120
1000
0231
1000
,
0312
0100
1003
1010
0110
0011
0110
1001
,
1100
0110
0011
0101
1010
1100
0110
1001
,
0011
0110
1001
1010
0110
1001
0011
0110
,
1001
1100
0110
0110
1001
0011
0101
1010
,
1001
1100
0110
1001
0011
0101
1010
1010
,
0001
0000
0001
0010
0001
0000
0101
0000
0001
0010
0001
0000
1001
0000
0001
0100
0001
0000
0011
0000
0001
0100
0000
0000
,
1010
0100
1001
0010
0011
0100
1001
0100
,
1100
0010
0001
1000
0110
0100
0010
0100
1001
0001
0010
0001
1100
0010
1000
0010
,
0110
1000
0001
0010
1001
0100
0010
1000
0011
0001
0100
0010
0101
1000
0001
0010
,
1100
0010
1000
0001
0110
1000
0010
0100
1001
0010
0100
1000
0011
0100
1000
0001
,
0110
1000
0100
0010
1001
0010
0100
0001
1010
0100
1000
0010
0101
0010
1000
0100
,
0011
1000
0100
0001
0110
1000
0001
0100
1010
0001
1000
0001
0110
1000
0001
1000
,
0011
0100
0010
0100
1001
0010
0001
0010
1100
0001
0010
0100
1010
0001
1000
0010
,
0101
0010
1000
0100
0011
1000
0100
0001
0110
1000
0001
0010
1001
0010
0001
0010
,
1100
0001
1000
0001
0110
1000
0001
0010
1001
0100
1000
0100
0011
0100
1000
0001
,
0110
1000
0001
0010
1001
0010
0001
0010
1100
0010
0001
1000
0110
1000
0001
0100
,
1001
0100
1000
0100
0011
0100
0001
1000
0110
1000
0010
0100
1001
0010
0100
0001
,
1010
0100
0010
0100
1001
0100
1000
0100
0011
1000
0001
1000
0110
1000
0001
0010
,
1001
0010
0001
0010
1100
0001
1000
0001
0110
1000
0001
0010
1001
0100
1000
0100
,
0011
1000
0001
1000
0110
1000
0001
0010
1001
0100
0001
0010
1100
0001
1000
0001
,
0110
1000
0001
0010
1001
0100
0010
1000
0101
0010
0001
0100
1010
0001
0100
0010
,
1100
0001
1000
0001
0110
1000
0001
0010
1001
0100
1000
0100
0011
1000
0001
1000
,
0110
1000
0001
0100
1010
0001
0100
0010
1100
0001
1000
0001
0110
1000
0001
0010
,
1001
0100
1000
0100
0011
1000
0001
1000
0110
1000
0001
0010
1001
0010
0001
0010
,
1100
0010
0001
1000
0110
1000
0001
0010
1001
0100
1000
0100
0011
1000
0001
1000
,
0110
1000
0001
0100
1001
0010
0001
0010
1100
0001
1000
0001
0110
1000
0001
0100
,
1001
0010
0100
0010
1001
0100
1000
0100
0011
1000
0001
0010
0101
1000
0010
0001
,
1100
0010
1000
0001
0110
1000
0001
0010
1001
0100
1000
0100
0011
0100
1000
0010
,
0101
0010
0001
0010
1100
0001
1000
0001
0110
1000
0001
0010
1001
0010
1000
0010
,
0101
1000
0010
0001
1010
0001
0010
0001
1100
0010
0001
0010
1100
0001
1000
0001
,
0110
1000
0010
0100
1001
0100
1000
0100
0011
1000
0010
1000
0101
0010
1000
0010
,
1001
0010
0100
0010
1100
0001
0100
0001
1010
0100
0010
0100
1001
0100
1000
0100
,
0011
1000
0010
1000
0101
1000
0001
0100
1010
0001
0100
0010
1100
0001
1000
0001
,
0110
1000
0010
0100
1001
0010
1000
0100
0011
1000
0100
0010
0101
0010
0001
0010
,
1100
0010
1000
0001
0110
1000
0001
0010
1001
0100
0010
0001
1100
0010
0100
1000
,
0110
0000
0000
0000
;
